Details for this torrent 

Elementary Season 7. revittony
Type:
Video > TV shows
Files:
14
Size:
2.69 GiB (2886512713 Bytes)
Info:
IMDB
Tag(s):
tt2191671
Uploaded:
2019-08-16 11:25:22 GMT
By:
revittony1 Trusted
Seeders:
15
Leechers:
10
Comments
0  

Info Hash:
F1C0ACF41B4962538C8D504168746AC8B1F098F0




(Problems with magnets links are fixed by upgrading your torrent client!)
 https://www.imdb.com/title/tt2191671



Format : Matroska 
Format version : Version 4 
Overall bit rate : 658 kb/s 
Encoded date : UTC 2019-05-24 00:00:46 
Writing application : mkvmerge v8.8.0 ('Wind at my back') 64bit 
Writing library : libebml v1.3.3 + libmatroska v1.4.4 

Video 
ID : 1 
Format : AVC 
Format/Info : Advanced Video Codec 
Format profile : [email protected] 
Format settings : CABAC / 5 Ref Frames 
Format settings, CABAC : Yes 
Format settings, Reference frames : 5 frames 
Codec ID : V_MPEG4/ISO/AVC 
Duration : 42 min 25 s 
Bit rate : 542 kb/s 
Width : 720 pixels 
Height : 404 pixels 
Display aspect ratio : 16:9 
Frame rate mode : Constant 
Frame rate : 23.976 (24000/1001) FPS 
Color space : YUV 
Chroma subsampling : 4:2:0 
Bit depth : 8 bits 
Scan type : Progressive 
Bits/(Pixel*Frame) : 0.078 
Stream size : 164 MiB (82%) 
Writing library : x264 core 157 r2969 d4099dd 
Default : Yes 
Forced : No 
Color range : Limited 
Matrix coefficients : BT.709 

Audio 
ID : 2 
Format : AAC LC 
Format/Info : Advanced Audio Codec Low Complexity 
Codec ID : A_AAC-2 
Duration : 42 min 25 s 
Bit rate : 114 kb/s 
Channel(s) : 2 channels 
Channel layout : L R 
Sampling rate : 48.0 kHz 
Frame rate : 46.875 FPS (1024 SPF) 
Compression mode : Lossy 
Delay relative to video : 20 ms 
Stream size : 34.6 MiB (17%) 
Default : Yes 
Forced : No